<?xml version="1.0" standalone="no"?>
<!DOCTYPE svg PUBLIC "-//W3C//DTD SVG 1.1//EN" "http://www.w3.org/Graphics/SVG/1.1/DTD/svg11.dtd" >
<svg xmlns="http://www.w3.org/2000/svg">
<metadata>Generated by IcoMoon</metadata>
<defs>
<font id="icomoon" horiz-adv-x="1024">
<font-face units-per-em="1024" ascent="960" descent="-64" />
<missing-glyph horiz-adv-x="1024" />
<glyph unicode="&#x20;" horiz-adv-x="512" d="" />
<glyph unicode="&#xe900;" glyph-name="heart" d="M511.71 740.872l-32.427-27.734c8.107-9.477 19.955-14.932 32.427-14.932 12.467 0 24.316 5.456 32.422 14.932l-32.422 27.734zM139.273 424.090v0zM884.143 424.090v0zM489.476 83.593v0zM505.609 71.957v0zM533.939 83.593v0zM517.807 71.957v0zM544.132 768.606c-97.865 114.409-266.73 149.178-394.581 39.939l55.432-64.877c85.913 73.406 201.552 54.521 274.3-30.53l64.849 55.468zM149.551 808.544c-124.023-105.968-142.043-284.436-43.968-410.635l67.379 52.361c-69.796 89.814-57.72 216.721 32.021 293.398l-55.432 64.877zM917.833 397.909c97.698 125.717 82.462 305.559-44.412 411.009l-54.545-65.625c90.564-75.273 101.751-202.725 31.578-293.024l67.379-52.361zM873.421 808.919c-129.25 107.425-295.953 74.472-394.138-40.313l64.849-55.468c72.427 84.675 186.556 103.454 274.743 30.156l54.545 65.625zM105.583 397.909c37.228-47.906 109.888-119.876 179.718-185.783 70.646-66.684 141.129-129.694 175.888-160.478l56.576 63.885c-34.462 30.519-104.186 92.855-173.891 158.647-70.522 66.564-138.353 134.195-170.912 176.090l-67.379-52.361zM562.227 51.648c34.761 30.784 105.242 93.794 175.889 160.478 69.828 65.907 142.49 137.877 179.716 185.783l-67.379 52.361c-32.559-41.894-100.39-109.525-170.91-176.090-69.705-65.792-139.43-128.128-173.892-158.647l56.576-63.885zM461.188 51.648c3.371-2.982 7.731-6.886 11.9-10.027 4.668-3.516 11.371-7.881 20.322-10.551l24.397 81.771c2.125-0.631 3.853-1.429 5.094-2.112 1.135-0.627 1.702-1.075 1.519-0.939-0.209 0.158-0.785 0.61-2.001 1.655-1.22 1.050-2.65 2.308-4.655 4.087l-56.576-63.885zM505.651 115.533c-2.005-1.779-3.435-3.038-4.655-4.087-1.216-1.045-1.792-1.498-2.001-1.655-0.183-0.137 0.384 0.311 1.519 0.939 1.242 0.683 2.97 1.481 5.094 2.112l24.397-81.771c8.951 2.671 15.654 7.036 20.322 10.551 4.169 3.14 8.529 7.044 11.9 10.027l-56.576 63.885zM493.41 31.070c11.904-3.55 24.695-3.55 36.595 0l-24.397 81.771c4.015 1.199 8.183 1.199 12.198 0l-24.397-81.771z" />
<glyph unicode="&#xe901;" glyph-name="search" d="M865.83 33.83c16.661-16.661 43.678-16.661 60.339 0s16.661 43.678 0 60.339l-60.339-60.339zM740.57 279.77c-16.661 16.661-43.678 16.661-60.339 0s-16.661-43.678 0-60.339l60.339 60.339zM926.17 94.17l-185.6 185.6-60.339-60.339 185.6-185.6 60.339 60.339zM768 490.667c0-164.949-133.717-298.667-298.667-298.667v-85.333c212.079 0 384 171.921 384 384h-85.333zM469.333 192c-164.949 0-298.667 133.717-298.667 298.667h-85.333c0-212.079 171.923-384 384-384v85.333zM170.667 490.667c0 164.949 133.718 298.667 298.667 298.667v85.333c-212.077 0-384-171.923-384-384h85.333zM469.333 789.333c164.949 0 298.667-133.718 298.667-298.667h85.333c0 212.077-171.921 384-384 384v-85.333z" />
<glyph unicode="&#xe902;" glyph-name="chevron-up" d="M737.83 289.83c16.661-16.661 43.678-16.661 60.339 0s16.661 43.678 0 60.339l-60.339-60.339zM512 576l30.17 30.17c-16.661 16.662-43.678 16.662-60.339 0l30.17-30.17zM225.83 350.17c-16.662-16.661-16.662-43.678 0-60.339s43.677-16.661 60.34 0l-60.34 60.339zM798.17 350.17l-256 256-60.339-60.34 256-256 60.339 60.339zM481.83 606.17l-256-256 60.34-60.339 256 256-60.339 60.34z" />
<glyph unicode="&#xe903;" glyph-name="chevron-left" d="M609.83 161.83c16.661-16.661 43.678-16.661 60.339 0s16.661 43.678 0 60.339l-60.339-60.339zM384 448l-30.17 30.17c-16.662-16.661-16.662-43.678 0-60.339l30.17 30.17zM670.17 673.83c16.661 16.663 16.661 43.677 0 60.34s-43.678 16.662-60.339 0l60.339-60.34zM670.17 222.17l-256 256-60.34-60.339 256-256 60.339 60.339zM414.17 417.83l256 256-60.339 60.34-256-256 60.34-60.339z" />
<glyph unicode="&#xe904;" glyph-name="chevron-down" d="M286.17 606.17c-16.663 16.662-43.677 16.662-60.34 0s-16.662-43.677 0-60.34l60.34 60.34zM512 320l-30.17-30.17c16.661-16.661 43.678-16.661 60.339 0l-30.17 30.17zM798.17 545.83c16.661 16.663 16.661 43.677 0 60.34s-43.678 16.662-60.339 0l60.339-60.34zM225.83 545.83l256-256 60.339 60.339-256 256-60.34-60.34zM542.17 289.83l256 256-60.339 60.34-256-256 60.339-60.339z" />
<glyph unicode="&#xe905;" glyph-name="arrow-up-right" d="M225.83 222.17c-16.662-16.661-16.662-43.678 0-60.339s43.677-16.661 60.34 0l-60.34 60.339zM768 704h42.667c0 23.564-19.102 42.667-42.667 42.667v-42.667zM426.667 746.667c-23.564 0-42.667-19.103-42.667-42.667s19.103-42.667 42.667-42.667v85.333zM725.333 362.667c0-23.565 19.102-42.667 42.667-42.667s42.667 19.102 42.667 42.667h-85.333zM286.17 161.83l512 512-60.339 60.34-512-512 60.34-60.339zM426.667 661.333h341.333v85.333h-341.333v-85.333zM725.333 704v-341.333h85.333v341.333h-85.333z" />
<glyph unicode="&#xe906;" glyph-name="arrow-up-left" d="M737.83 161.83c16.661-16.661 43.678-16.661 60.339 0s16.661 43.678 0 60.339l-60.339-60.339zM256 704v42.667c-23.564 0-42.667-19.103-42.667-42.667h42.667zM213.333 362.667c0-23.565 19.103-42.667 42.667-42.667s42.667 19.102 42.667 42.667h-85.333zM597.333 661.333c23.565 0 42.667 19.103 42.667 42.667s-19.102 42.667-42.667 42.667v-85.333zM798.17 222.17l-512 512-60.34-60.34 512-512 60.339 60.339zM298.667 362.667v341.333h-85.333v-341.333h85.333zM256 661.333h341.333v85.333h-341.333v-85.333z" />
<glyph unicode="&#xe907;" glyph-name="arrow-right" d="M170.667 490.667c-23.564 0-42.667-19.102-42.667-42.667s19.103-42.667 42.667-42.667v85.333zM853.333 448l30.17-30.17c16.661 16.661 16.661 43.678 0 60.339l-30.17-30.17zM627.503 734.17c-16.661 16.662-43.678 16.662-60.339 0s-16.661-43.677 0-60.34l60.339 60.34zM567.164 222.17c-16.661-16.661-16.661-43.678 0-60.339s43.678-16.661 60.339 0l-60.339 60.339zM170.667 405.333h682.667v85.333h-682.667v-85.333zM567.164 673.83l256-256 60.339 60.339-256 256-60.339-60.34zM823.164 478.17l-256-256 60.339-60.339 256 256-60.339 60.339z" />
<glyph unicode="&#xe908;" glyph-name="arrow-left" d="M853.333 405.333c23.565 0 42.667 19.102 42.667 42.667s-19.102 42.667-42.667 42.667v-85.333zM170.667 448l-30.17 30.17c-16.662-16.661-16.662-43.678 0-60.339l30.17 30.17zM396.497 161.83c16.663-16.661 43.678-16.661 60.34 0s16.661 43.678 0 60.339l-60.34-60.339zM456.836 673.83c16.661 16.663 16.661 43.677 0 60.34s-43.677 16.662-60.34 0l60.34-60.34zM853.333 490.667h-682.667v-85.333h682.667v85.333zM456.836 222.17l-256 256-60.34-60.339 256-256 60.34 60.339zM200.837 417.83l256 256-60.34 60.34-256-256 60.34-60.339z" />
<glyph unicode="&#xe909;" glyph-name="arrow-down-right" d="M286.17 734.17c-16.663 16.662-43.677 16.662-60.34 0s-16.662-43.677 0-60.34l60.34 60.34zM768 192v-42.667c23.565 0 42.667 19.102 42.667 42.667h-42.667zM810.667 533.333c0 23.564-19.102 42.667-42.667 42.667s-42.667-19.103-42.667-42.667h85.333zM426.667 234.667c-23.564 0-42.667-19.102-42.667-42.667s19.103-42.667 42.667-42.667v85.333zM225.83 673.83l512-512 60.339 60.339-512 512-60.34-60.34zM725.333 533.333v-341.333h85.333v341.333h-85.333zM768 234.667h-341.333v-85.333h341.333v85.333z" />
<glyph unicode="&#xe90a;" glyph-name="arrow-down-left" d="M798.17 673.83c16.661 16.663 16.661 43.677 0 60.34s-43.678 16.662-60.339 0l60.339-60.34zM256 192h-42.667c0-23.565 19.103-42.667 42.667-42.667v42.667zM597.333 149.333c23.565 0 42.667 19.102 42.667 42.667s-19.102 42.667-42.667 42.667v-85.333zM298.667 533.333c0 23.564-19.103 42.667-42.667 42.667s-42.667-19.103-42.667-42.667h85.333zM737.83 734.17l-512-512 60.34-60.339 512 512-60.339 60.34zM597.333 234.667h-341.333v-85.333h341.333v85.333zM298.667 192v341.333h-85.333v-341.333h85.333z" />
<glyph unicode="&#xe90b;" glyph-name="arrow-down" d="M554.667 789.333c0 23.564-19.102 42.667-42.667 42.667s-42.667-19.103-42.667-42.667h85.333zM512 106.667l-30.17-30.17c16.661-16.661 43.678-16.661 60.339 0l-30.17 30.17zM798.17 332.497c16.661 16.661 16.661 43.678 0 60.339s-43.678 16.661-60.339 0l60.339-60.339zM286.17 392.836c-16.663 16.661-43.677 16.661-60.34 0s-16.662-43.678 0-60.339l60.34 60.339zM469.333 789.333v-682.667h85.333v682.667h-85.333zM737.83 392.836l-256-256 60.339-60.339 256 256-60.339 60.339zM542.17 136.836l-256 256-60.34-60.339 256-256 60.339 60.339z" />
<glyph unicode="&#xe90c;" glyph-name="arrow-up" d="M469.333 106.667c0-23.565 19.102-42.667 42.667-42.667s42.667 19.102 42.667 42.667h-85.333zM512 789.333l30.17 30.17c-16.661 16.662-43.678 16.662-60.339 0l30.17-30.17zM225.83 563.503c-16.662-16.663-16.662-43.678 0-60.34s43.677-16.661 60.34 0l-60.34 60.34zM737.83 503.164c16.661-16.661 43.678-16.661 60.339 0s16.661 43.677 0 60.34l-60.339-60.34zM554.667 106.667v682.667h-85.333v-682.667h85.333zM286.17 503.164l256 256-60.339 60.34-256-256 60.34-60.34zM481.83 759.163l256-256 60.339 60.34-256 256-60.339-60.34z" />
<glyph unicode="&#xe90d;" glyph-name="log-in" d="M896 627.2v0zM896 268.8v0zM640 874.667c-23.565 0-42.667-19.103-42.667-42.667s19.102-42.667 42.667-42.667v85.333zM640 106.667c-23.565 0-42.667-19.102-42.667-42.667s19.102-42.667 42.667-42.667v85.333zM882.048 133.888v0zM826.112 77.952v0zM882.048 762.111v0zM826.112 818.049v0zM456.836 691.503c-16.661 16.662-43.677 16.662-60.34 0s-16.662-43.677 0-60.34l60.34 60.34zM640 448l30.17-30.17c16.661 16.661 16.661 43.678 0 60.339l-30.17-30.17zM396.497 264.836c-16.662-16.661-16.662-43.678 0-60.339s43.678-16.661 60.34 0l-60.34 60.339zM128 490.667c-23.564 0-42.667-19.102-42.667-42.667s19.103-42.667 42.667-42.667v85.333zM853.333 627.2v-358.4h85.333v358.4h-85.333zM640 789.333h51.2v85.333h-51.2v-85.333zM691.2 106.667h-51.2v-85.333h51.2v85.333zM853.333 268.8c0-36.548-0.034-61.393-1.604-80.597-1.527-18.705-4.297-28.271-7.697-34.944l76.032-38.741c10.551 20.71 14.758 42.756 16.717 66.739 1.92 23.484 1.886 52.403 1.886 87.543h-85.333zM691.2 21.333c35.14 0 64.060-0.034 87.543 1.886 23.983 1.958 46.029 6.165 66.739 16.717l-38.741 76.032c-6.673-3.401-16.239-6.17-34.944-7.697-19.204-1.57-44.049-1.604-80.597-1.604v-85.333zM844.032 153.259c-8.179-16.055-21.235-29.111-37.291-37.291l38.741-76.032c32.111 16.363 58.219 42.47 74.581 74.581l-76.032 38.741zM938.667 627.2c0 35.139 0.034 64.060-1.886 87.544-1.958 23.983-6.165 46.029-16.717 66.737l-76.032-38.74c3.401-6.673 6.17-16.239 7.697-34.945 1.57-19.204 1.604-44.048 1.604-80.596h85.333zM691.2 789.333c36.548 0 61.393-0.033 80.597-1.602 18.705-1.528 28.271-4.299 34.944-7.699l38.741 76.033c-20.71 10.551-42.756 14.756-66.739 16.716-23.484 1.919-52.403 1.885-87.543 1.885v-85.333zM920.064 781.481c-16.363 32.113-42.47 58.222-74.581 74.584l-38.741-76.033c16.055-8.181 29.111-21.236 37.291-37.292l76.032 38.74zM396.497 631.163l213.334-213.333 60.339 60.339-213.333 213.334-60.34-60.34zM609.83 478.17l-213.334-213.333 60.34-60.339 213.333 213.333-60.339 60.339zM128 405.333h512v85.333h-512v-85.333z" />
<glyph unicode="&#xe90e;" glyph-name="log-out" d="M652.497 264.836c-16.661-16.661-16.661-43.678 0-60.339s43.678-16.661 60.339 0l-60.339 60.339zM896 448l30.17-30.17c16.661 16.661 16.661 43.678 0 60.339l-30.17-30.17zM712.836 691.503c-16.661 16.662-43.678 16.662-60.339 0s-16.661-43.677 0-60.34l60.339 60.34zM384 490.667c-23.564 0-42.667-19.102-42.667-42.667s19.103-42.667 42.667-42.667v85.333zM384 789.333c23.564 0 42.667 19.103 42.667 42.667s-19.102 42.667-42.667 42.667v-85.333zM384 21.333c23.564 0 42.667 19.102 42.667 42.667s-19.102 42.667-42.667 42.667v-85.333zM141.951 133.888v0zM197.889 77.952v0zM141.951 762.111v0zM197.889 818.049v0zM712.836 204.497l213.333 213.333-60.339 60.339-213.333-213.333 60.339-60.339zM926.17 478.17l-213.333 213.334-60.339-60.34 213.333-213.333 60.339 60.339zM896 490.667h-512v-85.333h512v85.333zM85.333 627.2v-358.4h85.333v358.4h-85.333zM384 874.667h-51.2v-85.333h51.2v85.333zM332.8 21.333h51.2v85.333h-51.2v-85.333zM85.333 268.8c0-35.14-0.033-64.060 1.885-87.543 1.96-23.983 6.165-46.029 16.716-66.739l76.033 38.741c-3.4 6.673-6.17 16.239-7.699 34.944-1.569 19.204-1.602 44.049-1.602 80.597h-85.333zM332.8 106.667c-36.547 0-61.392 0.034-80.596 1.604-18.706 1.527-28.272 4.297-34.945 7.697l-38.74-76.032c20.707-10.551 42.754-14.758 66.736-16.717 23.485-1.92 52.405-1.886 87.545-1.886v85.333zM103.935 114.517c16.363-32.111 42.471-58.219 74.584-74.581l38.74 76.032c-16.057 8.179-29.111 21.235-37.292 37.291l-76.033-38.741zM170.667 627.2c0 36.547 0.033 61.392 1.602 80.596 1.528 18.706 4.299 28.272 7.699 34.945l-76.032 38.74c-10.551-20.707-14.757-42.754-16.716-66.736-1.919-23.485-1.885-52.405-1.885-87.545h85.333zM332.8 874.667c-35.139 0-64.060 0.033-87.545-1.885-23.983-1.96-46.029-6.165-66.736-16.716l38.74-76.033c6.673 3.4 16.239 6.17 34.945 7.699 19.204 1.569 44.048 1.602 80.596 1.602v85.333zM179.968 742.74c8.181 16.057 21.236 29.111 37.292 37.292l-38.74 76.033c-32.113-16.363-58.222-42.471-74.584-74.584l76.033-38.74z" />
<glyph unicode="&#xe90f;" glyph-name="shopping-cart-small" d="M85.333 917.333c-23.564 0-42.667-19.103-42.667-42.667s19.103-42.667 42.667-42.667v85.333zM874.475 366.985v0zM930.948 663.48v0zM174.853 845.361v0zM239.928 374.127v0zM933.001 689.771v0zM923.627 701.098v0zM817.109 263.236v0zM853.005 292.941v0zM294.884 263.791v0zM258.479 295.582v0zM161.032 872.736v0zM170.118 864.855v0zM85.333 832h55.729v85.333h-55.729v-85.333zM375.215 213.333h365.137v85.333h-365.137v-85.333zM916.386 359.002l56.474 296.495-83.823 15.967-56.478-296.492 83.827-15.97zM132.615 839.327l20.195-141.361 84.476 12.068-20.195 141.361-84.476-12.068zM152.771 698.248l44.881-329.873 84.554 11.503-44.881 329.873-84.554-11.504zM897.417 746.667h-702.369v-85.333h702.369v85.333zM972.86 655.497c1.182 6.199 2.624 13.553 3.277 19.992 0.691 6.815 1.092 17.175-2.901 28.491l-80.465-28.417c-1.028 2.917-1.382 5.413-1.485 7.043-0.094 1.462 0.017 2.143-0.047 1.51-0.064-0.635-0.226-1.859-0.623-4.138-0.393-2.272-0.9-4.935-1.579-8.513l83.823-15.967zM897.417 661.333c3.644 0 6.353-0.001 8.661-0.040 2.313-0.038 3.546-0.106 4.181-0.162 0.631-0.055-0.055-0.041-1.476 0.325-1.579 0.407-3.968 1.221-6.639 2.778l42.97 73.725c-10.368 6.042-20.621 7.587-27.443 8.182-6.447 0.562-13.943 0.524-20.254 0.524v-85.333zM973.235 703.978c-5.052 14.302-15.019 26.345-28.122 33.982l-42.97-73.725c-4.369 2.545-7.689 6.56-9.374 11.328l80.465 28.415zM740.352 213.333c19.473 0 36.412-0.026 50.475 1.024 14.601 1.088 29.086 3.494 43.473 9.83l-34.385 78.097c-2.044-0.9-5.828-2.112-15.445-2.833-10.15-0.759-23.377-0.785-44.117-0.785v-85.333zM832.559 374.972c-3.878-20.378-6.383-33.361-9.024-43.196-2.505-9.31-4.407-12.8-5.675-14.639l70.285-48.393c8.917 12.949 13.99 26.726 17.792 40.866 3.665 13.619 6.805 30.259 10.449 49.391l-83.827 15.97zM834.3 224.188c21.734 9.57 40.38 24.994 53.845 44.557l-70.285 48.393c-4.489-6.519-10.701-11.661-17.946-14.852l34.385-78.097zM375.215 298.667c-21.777 0-35.71 0.030-46.381 0.849-10.138 0.777-14.068 2.095-16.137 3.046l-35.625-77.542c14.891-6.839 30.003-9.417 45.228-10.586 14.693-1.131 32.445-1.101 52.915-1.101v85.333zM197.651 368.375c2.76-20.284 5.124-37.879 8.223-52.284 3.211-14.929 7.803-29.555 16.59-43.388l72.031 45.751c-1.221 1.924-3.057 5.641-5.195 15.582-2.251 10.462-4.158 24.265-7.094 45.841l-84.554-11.503zM312.697 302.562c-7.473 3.435-13.794 8.951-18.203 15.893l-72.031-45.751c13.228-20.826 32.191-37.385 54.608-47.684l35.625 77.542zM141.063 832c2.716 0 4.669-0.001 6.322-0.026 1.651-0.024 2.438-0.067 2.759-0.091 0.298-0.023-0.369 0.009-1.592 0.274-1.339 0.291-3.18 0.825-5.255 1.773l35.47 77.612c-8.492 3.881-16.421 4.989-22.11 5.425-5.157 0.395-10.996 0.366-15.593 0.366v-85.333zM217.091 851.395c-0.65 4.551-1.447 10.336-2.567 15.385-1.236 5.57-3.454 13.263-8.497 21.121l-71.816-46.090c-1.232 1.92-2.021 3.667-2.499 4.951-0.436 1.172-0.561 1.829-0.496 1.537 0.070-0.314 0.223-1.087 0.48-2.718 0.258-1.633 0.535-3.566 0.919-6.255l84.476 12.068zM143.297 833.93c-3.722 1.701-6.876 4.437-9.087 7.881l71.816 46.089c-6.631 10.332-16.093 18.54-27.26 23.642l-35.47-77.612zM384 64v-85.333c47.13 0 85.333 38.204 85.333 85.333h-85.333zM384 64h-85.333c0-47.13 38.205-85.333 85.333-85.333v85.333zM384 64v85.333c-47.128 0-85.333-38.204-85.333-85.333h85.333zM384 64h85.333c0 47.13-38.204 85.333-85.333 85.333v-85.333zM725.333 64v-85.333c47.13 0 85.333 38.204 85.333 85.333h-85.333zM725.333 64h-85.333c0-47.13 38.204-85.333 85.333-85.333v85.333zM725.333 64v85.333c-47.13 0-85.333-38.204-85.333-85.333h85.333zM725.333 64h85.333c0 47.13-38.204 85.333-85.333 85.333v-85.333z" />
<glyph unicode="&#xe910;" glyph-name="Youtube" horiz-adv-x="983" d="M892.961 613.427c0 0-7.999 56.214-32.641 80.896-31.199 32.486-66.081 32.645-82.080 34.556-114.561 8.281-286.56 8.281-286.56 8.281h-0.319c0 0-172 0-286.56-8.281-16-1.911-50.88-2.070-82.080-34.556-24.64-24.683-32.48-80.896-32.48-80.896s-8.32-66.087-8.32-132.016v-61.784c0-65.929 8.16-132.014 8.16-132.014s8-56.214 32.48-80.896c31.2-32.485 72.16-31.371 90.4-34.877 65.6-6.21 278.56-8.118 278.56-8.118s172.159 0.315 286.72 8.438c15.999 1.913 50.881 2.073 82.080 34.558 24.642 24.682 32.641 80.896 32.641 80.896s8.159 65.925 8.159 132.014v61.784c0 65.929-8.159 132.016-8.159 132.016zM406.88 344.621v229.154l221.279-114.974-221.279-114.18z" />
<glyph unicode="&#xe911;" glyph-name="LinkedIn" horiz-adv-x="983" d="M840.479 860.040h-698.079c-33.44 0-60.48-26.4-60.48-59.040v-700.959c0-32.641 27.040-59.199 60.48-59.199h698.079c33.44 0 60.641 26.558 60.641 59.040v701.119c0 32.64-27.202 59.040-60.641 59.040zM324.96 161.96h-121.6v391.040h121.6v-391.040zM264.16 606.28c-39.040 0-70.56 31.52-70.56 70.4s31.52 70.4 70.56 70.4c38.88 0 70.4-31.52 70.4-70.4 0-38.72-31.52-70.4-70.4-70.4zM780.001 161.96h-121.442v190.079c0 45.281-0.799 103.682-63.197 103.682-63.201 0-72.802-49.443-72.802-100.479v-193.282h-121.279v391.040h116.479v-53.44h1.602c16.159 30.72 55.841 63.2 114.881 63.2 123.040 0 145.76-80.96 145.76-186.239v-214.561z" />
<glyph unicode="&#xe912;" glyph-name="Instagram" horiz-adv-x="983" d="M491.762 786.266c109.502 0 122.47-0.48 165.536-2.401 40.022-1.76 61.637-8.482 76.042-14.083 19.055-7.361 32.821-16.323 47.071-30.566 14.406-14.403 23.212-28.006 30.577-47.050 5.603-14.403 12.325-36.167 14.086-76.015 1.921-43.208 2.404-56.171 2.404-165.473 0-109.462-0.483-122.421-2.404-165.47-1.761-40.010-8.483-61.612-14.086-76.018-7.365-19.042-16.331-32.805-30.577-47.047-14.41-14.402-28.017-23.204-47.071-30.568-14.406-5.599-36.18-12.321-76.042-14.082-43.225-1.921-56.193-2.4-165.536-2.4-109.506 0-122.473 0.479-165.539 2.4-40.023 1.761-61.636 8.483-76.044 14.082-19.051 7.365-32.82 16.327-47.068 30.568-14.408 14.402-23.213 28.004-30.578 47.047-5.603 14.406-12.327 36.168-14.088 76.018-1.921 43.209-2.401 56.168-2.401 165.47 0 109.463 0.48 122.425 2.401 165.473 1.761 40.008 8.485 61.612 14.088 76.015 7.365 19.044 16.33 32.807 30.578 47.050 14.408 14.403 28.017 23.204 47.068 30.566 14.408 5.601 36.181 12.322 76.044 14.083 43.065 1.921 56.033 2.401 165.539 2.401zM491.762 860.040c-111.267 0-125.195-0.48-168.901-2.4-43.545-1.921-73.483-8.962-99.418-19.044-27.056-10.562-49.949-24.485-72.683-47.369-22.893-22.724-36.821-45.609-47.388-72.494-10.086-26.085-17.13-55.851-19.051-99.38-1.921-43.848-2.401-57.771-2.401-168.994s0.48-125.145 2.401-168.833c1.921-43.528 8.965-73.454 19.051-99.377 10.566-27.046 24.494-49.93 47.388-72.655 22.734-22.725 45.627-36.807 72.523-47.21 26.095-10.080 55.873-17.121 99.418-19.042 43.706-1.921 57.634-2.4 168.901-2.4 111.264 0 125.19 0.479 168.899 2.4 43.545 1.921 73.482 8.962 99.418 19.042 26.894 10.404 49.787 24.486 72.52 47.21s36.823 45.609 47.231 72.495c10.084 26.083 17.129 55.849 19.050 99.377 1.921 43.688 2.4 57.61 2.4 168.833s-0.479 125.145-2.4 168.833c-1.921 43.529-8.966 73.454-19.050 99.379-10.088 27.206-24.015 50.090-46.907 72.814-22.737 22.725-45.629 36.807-72.524 47.209-26.096 10.082-55.874 17.123-99.418 19.044-43.868 2.080-57.795 2.56-169.058 2.56zM491.762 660.801c-116.23 0-210.525-94.258-210.525-210.442s94.295-210.44 210.525-210.44c116.228 0 210.522 94.257 210.522 210.44s-94.294 210.442-210.522 210.442zM491.762 313.852c-75.407 0-136.561 61.133-136.561 136.507s61.154 136.507 136.561 136.507c75.403 0 136.557-61.133 136.557-136.507s-61.153-136.507-136.557-136.507zM759.759 669.116c0-27.205-22.094-49.13-49.152-49.13-27.214 0-49.148 22.084-49.148 49.13 0 27.205 22.094 49.129 49.148 49.129 27.058 0 49.152-22.084 49.152-49.129z" />
<glyph unicode="&#xe913;" glyph-name="Twitter" horiz-adv-x="983" d="M339.632 122.761c309.055 0 478.142 252.162 478.142 470.769 0 7.089-0.16 14.336-0.479 21.425 32.895 23.421 61.28 52.43 83.825 85.666-30.634-13.419-63.16-22.183-96.465-25.993 35.070 20.696 61.325 53.209 73.904 91.511-32.989-19.25-69.067-32.829-106.689-40.155-25.346 26.518-58.86 44.075-95.359 49.959s-73.949-0.236-106.562-17.41c-32.612-17.175-58.573-44.449-73.863-77.606s-19.059-70.35-10.727-105.828c-66.802 3.301-132.15 20.386-191.814 50.148s-112.309 71.538-154.522 122.618c-21.455-36.421-28.020-79.519-18.362-120.534s34.817-76.871 70.361-100.279c-26.685 0.831-52.785 7.905-76.144 20.636v-2.048c-0.024-38.22 13.396-75.272 37.979-104.849 24.583-29.581 58.812-49.865 96.868-57.41-24.719-6.66-50.663-7.627-75.824-2.834 10.739-32.87 31.633-61.62 59.765-82.235s62.1-32.072 97.163-32.764c-59.526-46.039-133.057-71.008-208.752-70.889-13.424 0.020-26.835 0.831-40.16 2.425 76.897-48.57 166.35-74.371 257.712-74.322z" />
<glyph unicode="&#xe914;" glyph-name="Facebook" horiz-adv-x="983" d="M901.12 450.441c0 226.215-183.382 409.599-409.6 409.599-226.216 0-409.6-183.384-409.6-409.599 0-204.44 149.784-373.899 345.6-404.623v286.22h-104v118.403h104v90.239c0 102.656 61.153 159.36 154.71 159.36 44.802 0 91.689-8 91.689-8v-100.8h-51.646c-50.881 0-66.753-31.576-66.753-63.999v-76.8h113.598l-18.158-118.403h-95.441v-286.22c195.817 30.724 345.6 200.184 345.6 404.623z" />
<glyph unicode="&#xe915;" glyph-name="mail" d="M155.223 120.619v0zM99.284 176.555v0zM924.715 176.555v0zM868.779 120.619v0zM868.779 775.382v0zM924.715 719.444v0zM155.223 775.382v0zM99.284 719.444v0zM888.734 160.337c17.485-15.795 44.467-14.421 60.262 3.063 15.795 17.489 14.421 44.467-3.063 60.262l-57.199-63.326zM662.502 479.663c-17.485 15.795-44.467 14.421-60.262-3.063-15.791-17.489-14.421-44.467 3.068-60.262l57.195 63.326zM418.694 416.337c17.487 15.795 18.857 42.773 3.064 60.262-15.795 17.485-42.775 18.859-60.262 3.063l57.198-63.326zM78.069 223.663c-17.487-15.795-18.859-42.773-3.064-60.262 15.795-17.485 42.775-18.859 60.262-3.063l-57.198 63.326zM109.801 696.287c-19.305 13.513-45.908 8.818-59.421-10.486s-8.818-45.908 10.486-59.421l48.935 69.908zM433.702 417.476v0zM590.298 417.476v0zM963.136 626.38c19.302 13.513 23.996 40.117 10.483 59.421s-40.115 24-59.422 10.486l48.939-69.908zM491.362 384.030v0zM532.638 384.030v0zM290.133 746.667h443.733v85.333h-443.733v-85.333zM896 584.533v-273.067h85.333v273.067h-85.333zM733.867 149.333h-443.733v-85.333h443.733v85.333zM128 311.467v273.067h-85.333v-273.067h85.333zM290.133 149.333c-36.547 0-61.392 0.034-80.596 1.604-18.706 1.527-28.272 4.297-34.945 7.697l-38.74-76.032c20.707-10.551 42.754-14.758 66.736-16.717 23.485-1.92 52.405-1.886 87.545-1.886v85.333zM42.667 311.467c0-35.14-0.033-64.060 1.885-87.543 1.96-23.983 6.165-46.029 16.716-66.739l76.033 38.741c-3.4 6.673-6.17 16.239-7.699 34.944-1.569 19.204-1.602 44.049-1.602 80.597h-85.333zM174.593 158.635c-16.057 8.179-29.111 21.235-37.292 37.291l-76.033-38.741c16.363-32.111 42.471-58.219 74.584-74.581l38.74 76.032zM896 311.467c0-36.548-0.034-61.393-1.604-80.597-1.527-18.705-4.297-28.271-7.697-34.944l76.032-38.741c10.551 20.71 14.758 42.756 16.717 66.739 1.92 23.484 1.886 52.403 1.886 87.543h-85.333zM733.867 64c35.14 0 64.060-0.034 87.543 1.886 23.983 1.958 46.029 6.165 66.739 16.717l-38.741 76.032c-6.673-3.401-16.239-6.17-34.944-7.697-19.204-1.57-44.049-1.604-80.597-1.604v-85.333zM886.699 195.925c-8.179-16.055-21.235-29.111-37.291-37.291l38.741-76.032c32.111 16.363 58.219 42.47 74.581 74.581l-76.032 38.741zM733.867 746.667c36.548 0 61.393-0.033 80.597-1.602 18.705-1.528 28.271-4.299 34.944-7.699l38.741 76.033c-20.71 10.551-42.756 14.756-66.739 16.716-23.484 1.919-52.403 1.885-87.543 1.885v-85.333zM981.333 584.533c0 35.139 0.034 64.060-1.886 87.545-1.958 23.983-6.165 46.029-16.717 66.736l-76.032-38.74c3.401-6.673 6.17-16.239 7.697-34.945 1.57-19.204 1.604-44.048 1.604-80.596h85.333zM849.408 737.366c16.055-8.181 29.111-21.236 37.291-37.292l76.032 38.74c-16.363 32.113-42.47 58.222-74.581 74.584l-38.741-76.033zM290.133 832c-35.139 0-64.060 0.033-87.545-1.885-23.983-1.96-46.029-6.165-66.736-16.716l38.74-76.033c6.673 3.4 16.239 6.17 34.945 7.699 19.204 1.569 44.048 1.602 80.596 1.602v85.333zM128 584.533c0 36.547 0.033 61.392 1.602 80.596 1.528 18.706 4.299 28.272 7.699 34.945l-76.033 38.74c-10.551-20.707-14.756-42.754-16.716-66.736-1.919-23.485-1.885-52.405-1.885-87.545h85.333zM135.852 813.399c-32.113-16.363-58.222-42.471-74.584-74.584l76.033-38.74c8.181 16.057 21.235 29.111 37.292 37.292l-38.74 76.033zM945.933 223.663l-283.43 256-57.195-63.326 283.426-256 57.199 63.326zM361.496 479.663l-283.427-256 57.198-63.326 283.427 256-57.198 63.326zM60.866 626.38l348.37-243.86 48.936 69.909-348.371 243.858-48.935-69.908zM614.763 382.519l348.373 243.86-48.939 69.908-348.369-243.858 48.934-69.909zM409.236 382.519c25.32-17.724 46.939-33.69 71.805-39.889l20.638 82.799c-5.815 1.451-12.407 5.227-43.507 26.999l-48.936-69.909zM565.828 452.429c-31.1-21.773-37.692-25.549-43.507-26.999l20.638-82.799c24.866 6.199 46.485 22.165 71.804 39.889l-48.934 69.909zM481.041 342.63c20.326-5.069 41.591-5.069 61.918 0l-20.638 82.799c-6.775-1.69-13.867-1.69-20.642 0l-20.638-82.799z" />
<glyph unicode="&#xe916;" glyph-name="download" d="M938.667 320c0 23.565-19.102 42.667-42.667 42.667s-42.667-19.102-42.667-42.667h85.333zM170.667 320c0 23.565-19.103 42.667-42.667 42.667s-42.667-19.102-42.667-42.667h85.333zM197.889 77.952v0zM141.951 133.888v0zM826.112 77.952v0zM882.048 133.888v0zM755.503 503.164c16.661 16.661 16.661 43.677 0 60.34s-43.678 16.662-60.339 0l60.339-60.34zM512 320l-30.17-30.17c16.661-16.661 43.678-16.661 60.339 0l-30.17 30.17zM328.837 563.503c-16.663 16.662-43.677 16.662-60.34 0s-16.662-43.678 0-60.34l60.34 60.34zM554.667 832c0 23.564-19.102 42.667-42.667 42.667s-42.667-19.103-42.667-42.667h85.333zM691.2 106.667h-358.4v-85.333h358.4v85.333zM853.333 320v-51.2h85.333v51.2h-85.333zM170.667 268.8v51.2h-85.333v-51.2h85.333zM332.8 106.667c-36.547 0-61.392 0.034-80.596 1.604-18.706 1.527-28.272 4.297-34.945 7.697l-38.74-76.032c20.707-10.551 42.754-14.758 66.736-16.717 23.485-1.92 52.405-1.886 87.545-1.886v85.333zM85.333 268.8c0-35.14-0.033-64.060 1.885-87.543 1.96-23.983 6.165-46.029 16.716-66.739l76.033 38.741c-3.4 6.673-6.17 16.239-7.699 34.944-1.569 19.204-1.602 44.049-1.602 80.597h-85.333zM217.26 115.968c-16.056 8.179-29.111 21.235-37.292 37.291l-76.033-38.741c16.363-32.111 42.471-58.219 74.584-74.581l38.74 76.032zM691.2 21.333c35.14 0 64.060-0.034 87.543 1.886 23.983 1.958 46.029 6.165 66.739 16.717l-38.741 76.032c-6.673-3.401-16.239-6.17-34.944-7.697-19.204-1.57-44.049-1.604-80.597-1.604v-85.333zM853.333 268.8c0-36.548-0.034-61.393-1.604-80.597-1.527-18.705-4.297-28.271-7.697-34.944l76.032-38.741c10.551 20.71 14.758 42.756 16.717 66.739 1.92 23.484 1.886 52.403 1.886 87.543h-85.333zM845.483 39.936c32.111 16.363 58.219 42.47 74.581 74.581l-76.032 38.741c-8.179-16.055-21.235-29.111-37.291-37.291l38.741-76.032zM695.164 563.503l-213.333-213.334 60.339-60.339 213.333 213.333-60.339 60.34zM542.17 350.17l-213.333 213.334-60.34-60.34 213.334-213.333 60.339 60.339zM469.333 832v-512h85.333v512h-85.333z" />
<glyph unicode="&#xe917;" glyph-name="file" d="M849.796 595.529v0zM793.348 678.651v0zM834.47 632.527v0zM574.195 871.13v0zM657.318 814.682v0zM611.196 855.805v0zM240.556 35.285v0zM184.618 91.221v0zM783.445 35.285v0zM839.381 91.221v0zM184.618 804.777v0zM240.556 860.716v0zM640 863.17c0 23.564-19.102 42.667-42.667 42.667s-42.667-19.103-42.667-42.667h85.333zM841.835 576c23.565 0 42.667 19.103 42.667 42.667s-19.102 42.667-42.667 42.667v-85.333zM601.984 641.963v0zM620.629 623.317v0zM648.533 64h-273.067v-85.333h273.067v85.333zM213.333 226.133v443.733h-85.333v-443.733h85.333zM375.467 832h137.037v85.333h-137.037v-85.333zM810.667 533.836v-307.703h85.333v307.703h-85.333zM627.149 784.512l136.030-136.031 60.339 60.34-136.030 136.031-60.339-60.34zM896 533.836c0 29.277 0.273 50.869-4.715 71.653l-82.978-19.921c2.086-8.679 2.359-18.394 2.359-51.732h85.333zM763.179 648.481c23.573-23.574 30.251-30.637 34.914-38.247l72.759 44.586c-11.17 18.225-26.633 33.299-47.334 54.001l-60.339-60.34zM891.285 605.489c-4.181 17.414-11.076 34.062-20.433 49.332l-72.759-44.586c4.676-7.635 8.124-15.959 10.214-24.666l82.978 19.921zM512.503 832c33.335 0 43.051-0.274 51.729-2.358l19.921 82.976c-20.783 4.99-42.377 4.716-71.65 4.716v-85.333zM687.488 844.852c-20.702 20.702-35.776 36.164-53.999 47.332l-44.587-72.759c7.607-4.663 14.673-11.339 38.246-34.913l60.339 60.34zM564.233 829.642c8.708-2.090 17.033-5.538 24.67-10.217l44.587 72.759c-15.27 9.358-31.919 16.253-49.335 20.434l-19.921-82.976zM375.467 64c-36.547 0-61.392 0.034-80.596 1.604-18.706 1.527-28.272 4.297-34.945 7.697l-38.74-76.032c20.707-10.551 42.754-14.758 66.736-16.717 23.485-1.92 52.405-1.886 87.545-1.886v85.333zM128 226.133c0-35.14-0.033-64.060 1.885-87.543 1.96-23.983 6.165-46.029 16.716-66.739l76.033 38.741c-3.4 6.673-6.17 16.239-7.699 34.944-1.569 19.204-1.602 44.049-1.602 80.597h-85.333zM259.926 73.301c-16.056 8.179-29.111 21.235-37.292 37.291l-76.033-38.741c16.363-32.111 42.471-58.219 74.584-74.581l38.74 76.032zM648.533-21.333c35.14 0 64.060-0.034 87.543 1.886 23.983 1.958 46.029 6.165 66.739 16.717l-38.741 76.032c-6.673-3.401-16.239-6.17-34.944-7.697-19.204-1.57-44.049-1.604-80.597-1.604v-85.333zM810.667 226.133c0-36.548-0.034-61.393-1.604-80.597-1.527-18.705-4.297-28.271-7.697-34.944l76.032-38.741c10.551 20.71 14.758 42.756 16.717 66.739 1.92 23.484 1.886 52.403 1.886 87.543h-85.333zM802.816-2.731c32.111 16.363 58.219 42.47 74.581 74.581l-76.032 38.741c-8.179-16.055-21.235-29.111-37.291-37.291l38.741-76.032zM213.333 669.867c0 36.547 0.033 61.392 1.602 80.596 1.528 18.706 4.299 28.272 7.699 34.945l-76.033 38.74c-10.551-20.707-14.756-42.754-16.716-66.736-1.919-23.485-1.885-52.405-1.885-87.545h85.333zM375.467 917.333c-35.139 0-64.060 0.033-87.545-1.885-23.983-1.96-46.029-6.165-66.736-16.716l38.74-76.033c6.673 3.4 16.239 6.17 34.945 7.699 19.204 1.569 44.048 1.602 80.596 1.602v85.333zM222.634 785.407c8.181 16.057 21.235 29.111 37.292 37.292l-38.74 76.033c-32.113-16.363-58.222-42.471-74.584-74.584l76.033-38.74zM554.667 863.17v-176.236h85.333v176.236h-85.333zM665.6 576h176.235v85.333h-176.235v-85.333zM554.667 686.933c0-11.244-0.034-22.243 0.721-31.498 0.798-9.753 2.679-21.262 8.58-32.843l76.032 38.74c1.25-2.454 0.806-3.425 0.439 1.051-0.405 4.975-0.439 11.897-0.439 24.549h-85.333zM665.6 661.333c-12.651 0-19.575 0.033-24.55 0.439-4.476 0.366-3.503 0.811-1.050-0.439l-38.741-76.032c11.58-5.901 23.091-7.781 32.845-8.578 9.254-0.756 20.254-0.723 31.497-0.723v85.333zM563.968 622.593c8.179-16.056 21.235-29.111 37.291-37.292l38.741 76.032-76.032-38.74z" />
<glyph unicode="&#xe918;" glyph-name="link-external" d="M853.333 576c0-23.564 19.102-42.667 42.667-42.667s42.667 19.103 42.667 42.667h-85.333zM896 832h42.667c0 23.564-19.102 42.667-42.667 42.667v-42.667zM640 874.667c-23.565 0-42.667-19.103-42.667-42.667s19.102-42.667 42.667-42.667v85.333zM524.497 520.836c-16.661-16.661-16.661-43.678 0-60.339s43.678-16.661 60.339 0l-60.339 60.339zM426.667 704c23.565 0 42.667 19.103 42.667 42.667s-19.102 42.667-42.667 42.667v-85.333zM853.333 362.667c0 23.565-19.102 42.667-42.667 42.667s-42.667-19.102-42.667-42.667h85.333zM197.889 77.952v0zM141.951 133.888v0zM740.779 77.952v0zM796.715 133.888v0zM141.951 676.777v0zM197.889 732.716v0zM938.667 576v256h-85.333v-256h85.333zM896 874.667h-256v-85.333h256v85.333zM865.83 862.17l-341.333-341.334 60.339-60.339 341.333 341.333-60.339 60.34zM605.867 106.667h-273.067v-85.333h273.067v85.333zM170.667 268.8v273.067h-85.333v-273.067h85.333zM426.667 789.333h-93.867v-85.333h93.867v85.333zM853.333 268.8v93.867h-85.333v-93.867h85.333zM332.8 106.667c-36.547 0-61.392 0.034-80.596 1.604-18.706 1.527-28.272 4.297-34.945 7.697l-38.74-76.032c20.707-10.551 42.754-14.758 66.736-16.717 23.485-1.92 52.405-1.886 87.545-1.886v85.333zM85.333 268.8c0-35.14-0.033-64.060 1.885-87.543 1.96-23.983 6.165-46.029 16.716-66.739l76.033 38.741c-3.4 6.673-6.17 16.239-7.699 34.944-1.569 19.204-1.602 44.049-1.602 80.597h-85.333zM217.26 115.968c-16.057 8.179-29.111 21.235-37.292 37.291l-76.033-38.741c16.363-32.111 42.471-58.219 74.584-74.581l38.74 76.032zM605.867 21.333c35.14 0 64.060-0.034 87.543 1.886 23.983 1.958 46.029 6.165 66.739 16.717l-38.741 76.032c-6.673-3.401-16.239-6.17-34.944-7.697-19.204-1.57-44.049-1.604-80.597-1.604v-85.333zM768 268.8c0-36.548-0.034-61.393-1.604-80.597-1.527-18.705-4.297-28.271-7.697-34.944l76.032-38.741c10.551 20.71 14.758 42.756 16.717 66.739 1.92 23.484 1.886 52.403 1.886 87.543h-85.333zM760.149 39.936c32.111 16.363 58.219 42.47 74.581 74.581l-76.032 38.741c-8.179-16.055-21.235-29.111-37.291-37.291l38.741-76.032zM170.667 541.867c0 36.547 0.033 61.392 1.602 80.596 1.528 18.706 4.299 28.272 7.699 34.945l-76.033 38.74c-10.551-20.707-14.756-42.754-16.716-66.736-1.919-23.485-1.885-52.405-1.885-87.545h85.333zM332.8 789.333c-35.139 0-64.060 0.033-87.545-1.885-23.983-1.96-46.029-6.165-66.736-16.716l38.74-76.033c6.673 3.4 16.239 6.17 34.945 7.699 19.204 1.569 44.048 1.602 80.596 1.602v85.333zM179.968 657.407c8.181 16.057 21.236 29.111 37.292 37.292l-38.74 76.033c-32.113-16.363-58.222-42.471-74.584-74.584l76.033-38.74z" />
<glyph unicode="&#xe919;" glyph-name="menu" d="M128 490.667c-23.564 0-42.667-19.102-42.667-42.667s19.103-42.667 42.667-42.667v85.333zM896 405.333c23.565 0 42.667 19.102 42.667 42.667s-19.102 42.667-42.667 42.667v-85.333zM128 746.667c-23.564 0-42.667-19.103-42.667-42.667s19.103-42.667 42.667-42.667v85.333zM896 661.333c23.565 0 42.667 19.103 42.667 42.667s-19.102 42.667-42.667 42.667v-85.333zM384 234.667c-23.564 0-42.667-19.102-42.667-42.667s19.103-42.667 42.667-42.667v85.333zM896 149.333c23.565 0 42.667 19.102 42.667 42.667s-19.102 42.667-42.667 42.667v-85.333zM128 405.333h768v85.333h-768v-85.333zM128 661.333h768v85.333h-768v-85.333zM384 149.333h512v85.333h-512v-85.333z" />
<glyph unicode="&#xe91a;" glyph-name="phone-01" d="M259.926 30.635v0zM222.634 67.925v0zM801.365 67.925v0zM764.075 30.635v0zM764.075 865.366v0zM801.365 828.074v0zM259.926 865.366v0zM222.634 828.074v0zM512 256c-23.565 0-42.667-19.102-42.667-42.667s19.102-42.667 42.667-42.667v85.333zM512.427 170.667c23.565 0 42.667 19.102 42.667 42.667s-19.102 42.667-42.667 42.667v-85.333zM349.867 832h324.267v85.333h-324.267v-85.333zM768 738.133v-580.267h85.333v580.267h-85.333zM674.133 64h-324.267v-85.333h324.267v85.333zM256 157.867v580.267h-85.333v-580.267h85.333zM349.867 64c-24.599 0-40.483 0.034-52.572 1.020-11.591 0.947-15.889 2.556-17.998 3.631l-38.74-76.032c16.144-8.226 32.922-11.268 49.789-12.646 16.37-1.34 36.33-1.306 59.521-1.306v85.333zM170.667 157.867c0-23.194-0.033-43.153 1.304-59.52 1.378-16.87 4.421-33.647 12.647-49.792l76.032 38.741c-1.075 2.112-2.682 6.409-3.629 17.997-0.988 12.092-1.021 27.972-1.021 52.574h-85.333zM279.296 68.651c-8.028 4.092-14.555 10.615-18.646 18.645l-76.032-38.741c12.272-24.085 31.853-43.665 55.938-55.936l38.74 76.032zM768 157.867c0-24.602-0.034-40.482-1.020-52.574-0.947-11.588-2.556-15.885-3.631-17.997l76.032-38.741c8.226 16.145 11.268 32.922 12.646 49.792 1.34 16.367 1.306 36.326 1.306 59.52h-85.333zM674.133-21.333c23.194 0 43.153-0.034 59.52 1.306 16.87 1.378 33.647 4.42 49.792 12.646l-38.741 76.032c-2.112-1.075-6.409-2.684-17.997-3.631-12.092-0.986-27.972-1.020-52.574-1.020v-85.333zM763.349 87.296c-4.092-8.030-10.615-14.554-18.645-18.645l38.741-76.032c24.085 12.271 43.665 31.851 55.936 55.936l-76.032 38.741zM674.133 832c24.602 0 40.482-0.033 52.574-1.021 11.588-0.947 15.885-2.554 17.997-3.629l38.741 76.032c-16.145 8.226-32.922 11.269-49.792 12.647-16.367 1.338-36.326 1.304-59.52 1.304v-85.333zM853.333 738.133c0 23.191 0.034 43.151-1.306 59.521-1.378 16.868-4.42 33.645-12.646 49.789l-76.032-38.74c1.075-2.109 2.684-6.407 3.631-17.998 0.986-12.089 1.020-27.973 1.020-52.572h85.333zM744.704 827.35c8.030-4.091 14.554-10.618 18.645-18.646l76.032 38.74c-12.271 24.085-31.851 43.666-55.936 55.938l-38.741-76.032zM349.867 917.333c-23.191 0-43.151 0.033-59.521-1.304-16.868-1.378-33.645-4.421-49.789-12.647l38.74-76.032c2.109 1.075 6.407 2.682 17.998 3.629 12.089 0.988 27.973 1.021 52.572 1.021v85.333zM256 738.133c0 24.599 0.033 40.483 1.021 52.572 0.947 11.591 2.554 15.889 3.629 17.998l-76.032 38.74c-8.226-16.144-11.269-32.922-12.647-49.789-1.338-16.37-1.304-36.33-1.304-59.521h85.333zM240.556 903.382c-24.085-12.272-43.666-31.853-55.938-55.938l76.032-38.74c4.091 8.028 10.618 14.555 18.646 18.646l-38.74 76.032zM512 170.667h0.427v85.333h-0.427v-85.333zM490.667 213.333c0 11.78 9.553 21.333 21.333 21.333v-85.333c35.345 0 64 28.655 64 64h-85.333zM512 234.667c11.78 0 21.333-9.553 21.333-21.333h-85.333c0-35.345 28.655-64 64-64v85.333zM533.333 213.333c0-11.78-9.553-21.333-21.333-21.333v85.333c-35.345 0-64-28.655-64-64h85.333zM512 192c-11.78 0-21.333 9.553-21.333 21.333h85.333c0 35.345-28.655 64-64 64v-85.333z" />
<glyph unicode="&#xe91b;" glyph-name="phone" d="M357.559 582.257v0zM650.091 289.724v0zM135.306 628.845v0zM696.678 67.473v0zM869.474 292.228v0zM861.163 300.54v0zM831.287 327.791v0zM738.257 327.791v0zM909.645 169.007v0zM909.645 246.037v0zM395.625 763.454v0zM395.625 670.425v0zM236.842 841.814v0zM313.871 841.814v0zM750.421 57.169v0zM813.491 73.57v0zM125.001 682.589v0zM141.402 745.66v0zM661.436 284.911v0zM698.214 291.183v0zM352.746 593.603v0zM359.017 630.384v0zM509.171 441.34c-47.812 47.817-85.509 101.815-113.149 159.384l-76.926-36.934c31.751-66.13 75.019-128.070 129.737-182.79l60.339 60.339zM668.557 328.188c-57.57 27.639-111.569 65.335-159.386 113.152l-60.339-60.339c54.72-54.72 116.659-97.988 182.793-129.737l36.932 76.924zM373.409 305.574c-96.611 96.614-162.258 212.314-197.057 334.921l-82.091-23.3c38.671-136.244 111.645-264.794 218.808-371.96l60.34 60.339zM708.326 108.518c-122.603 34.799-238.306 100.446-334.918 197.056l-60.34-60.339c107.163-107.162 235.714-180.139 371.962-218.807l23.296 82.091zM214.097 764.747l6.726 6.726-60.34 60.34-6.726-6.726 60.34-60.34zM329.89 771.473l8.314-8.314 60.34 60.34-8.314 8.314-60.34-60.34zM892.919 85.926l6.724 6.724-60.339 60.339-6.724-6.724 60.339-60.339zM899.644 322.398l-8.311 8.311-60.339-60.339 8.311-8.311 60.339 60.339zM891.332 330.714c-13.376 13.376-24.593 24.922-36.787 32.849l-46.515-71.539c2.803-1.826 6.507-5.197 22.963-21.653l60.339 60.343zM738.551 270.37c16.457 16.457 20.16 19.827 22.963 21.653l-46.515 71.539c-12.194-7.927-23.411-19.473-36.787-32.849l60.339-60.343zM854.545 363.563c-42.428 27.584-97.118 27.584-139.546 0l46.515-71.539c14.144 9.195 32.371 9.195 46.515 0l46.515 71.539zM899.644 92.651c20.305 20.305 38.063 37.303 48.077 57.101l-76.147 38.515c-2.304-4.553-7.223-10.231-32.269-35.277l60.339-60.339zM839.305 262.059c25.050-25.050 29.965-30.724 32.269-35.277l76.147 38.515c-10.014 19.797-27.772 36.796-48.077 57.101l-60.339-60.339zM947.721 149.751c18.372 36.322 18.372 79.219 0 115.546l-76.147-38.515c6.123-12.109 6.123-26.406 0-38.515l76.147-38.515zM338.205 763.159c16.457-16.457 19.827-20.157 21.65-22.962l71.539 46.515c-7.927 12.195-19.473 23.411-32.85 36.787l-60.34-60.34zM398.544 610.38c13.376 13.376 24.923 24.592 32.854 36.788l-71.544 46.514c-1.823-2.804-5.193-6.505-21.65-22.962l60.34-60.34zM359.855 740.196c9.194-14.141 9.194-32.372 0-46.514l71.539-46.515c27.584 42.425 27.584 97.118 0.004 139.543l-71.543-46.515zM220.823 771.473c25.046 25.047 30.723 29.964 35.276 32.268l-38.515 76.147c-19.799-10.014-36.797-27.771-57.101-48.075l60.34-60.34zM390.23 831.813c-20.303 20.303-37.302 38.060-57.101 48.075l-38.515-76.147c4.553-2.303 10.23-7.221 35.276-32.267l60.34 60.34zM256.099 803.74c12.108 6.124 26.407 6.124 38.515 0l38.515 76.147c-36.324 18.372-79.221 18.372-115.545 0l38.515-76.147zM685.030 26.428c23.322-6.622 40.875-11.853 65.263-11.925l0.256 85.333c-10.846 0.030-17.378 1.63-42.223 8.683l-23.296-82.091zM832.58 146.266c-23.902-23.902-30.814-30.345-39.983-35.499l41.792-74.398c21.555 12.109 37.239 28.262 58.53 49.557l-60.339 60.339zM750.293 14.502c26.914-0.081 60.634 8.687 84.096 21.867l-41.792 74.398c-10.628-5.969-29.858-10.97-42.048-10.931l-0.256-85.333zM176.352 640.495c-7.051 24.843-8.652 31.375-8.685 42.221l-85.333-0.254c0.073-24.392 5.307-41.943 11.927-65.267l82.091 23.3zM153.757 825.087c-21.292-21.292-37.446-36.976-49.554-58.531l74.398-41.793c5.15 9.168 11.593 16.081 35.496 39.984l-60.34 60.34zM167.667 682.716c-0.036 12.189 4.965 31.42 10.935 42.047l-74.398 41.793c-13.181-23.464-21.949-57.181-21.869-84.094l85.333 0.254zM631.625 251.264c4.514-2.167 10.487-5.158 17.873-7.313l23.881 81.924c0.401-0.119 0.61-0.226 0.132-0.017-0.337 0.145-0.849 0.375-1.707 0.781-0.87 0.41-1.877 0.892-3.247 1.549l-36.932-76.924zM678.212 330.714c-2.624-2.628-3.883-3.878-4.826-4.762-0.717-0.67-0.567-0.478-0.009-0.077l49.677-69.38c6.34 4.54 11.524 9.907 15.497 13.875l-60.339 60.343zM649.498 243.951c24.533-7.151 52.779-2.334 73.557 12.544l-49.677 69.38c0.465 0.333 0.691 0.41 0.597 0.371-0.090-0.034-0.316-0.111-0.636-0.166s-0.559-0.055-0.653-0.051c-0.098 0.004 0.141 0.009 0.691-0.154l-23.881-81.924zM396.022 600.724c-0.659 1.371-1.14 2.376-1.551 3.247-0.403 0.857-0.636 1.371-0.781 1.705-0.209 0.481-0.1 0.27 0.017-0.132l-81.923-23.881c2.153-7.384 5.144-13.359 7.311-17.873l76.926 36.934zM338.205 670.72c-3.972-3.972-9.338-9.156-13.877-15.496l69.38-49.68c-0.399-0.558-0.592-0.706 0.079 0.010 0.881 0.942 2.133 2.201 4.758 4.826l-60.34 60.34zM393.708 605.544c0.16-0.551 0.157-0.789 0.152-0.688-0.004 0.094-0.001 0.332 0.054 0.652s0.13 0.546 0.166 0.634c0.038 0.093-0.038-0.132-0.372-0.599l-69.381 49.68c-14.878-20.778-19.695-49.026-12.543-73.561l81.923 23.881z" />
<glyph unicode="&#xe91c;" glyph-name="printer" d="M725.333 661.333c0-23.564 19.102-42.667 42.667-42.667s42.667 19.103 42.667 42.667h-85.333zM213.333 661.333c0-23.564 19.103-42.667 42.667-42.667s42.667 19.103 42.667 42.667h-85.333zM721.408 865.366v0zM758.699 828.074v0zM302.593 865.366v0zM265.301 828.074v0zM302.593 30.635v0zM265.301 67.925v0zM758.699 67.925v0zM721.408 30.635v0zM721.408 353.365v0zM758.699 316.075v0zM302.593 353.365v0zM265.301 316.075v0zM89.695 286.869v0zM256 149.333c23.564 0 42.667 19.102 42.667 42.667s-19.103 42.667-42.667 42.667v-85.333zM180.204 196.361v0zM934.306 286.869v0zM768 234.667c-23.565 0-42.667-19.102-42.667-42.667s19.102-42.667 42.667-42.667v85.333zM843.797 196.361v0zM868.779 647.382v0zM924.715 591.444v0zM155.223 647.382v0zM99.284 591.444v0zM640 554.667c-23.565 0-42.667-19.103-42.667-42.667s19.102-42.667 42.667-42.667v85.333zM768 469.333c23.565 0 42.667 19.102 42.667 42.667s-19.102 42.667-42.667 42.667v-85.333zM392.533 832h238.933v85.333h-238.933v-85.333zM725.333 738.133v-76.8h85.333v76.8h-85.333zM298.667 661.333v76.8h-85.333v-76.8h85.333zM631.467 832c24.602 0 40.482-0.033 52.574-1.021 11.588-0.947 15.885-2.554 17.997-3.629l38.741 76.032c-16.145 8.226-32.922 11.269-49.792 12.647-16.367 1.338-36.326 1.304-59.52 1.304v-85.333zM810.667 738.133c0 23.191 0.034 43.151-1.306 59.521-1.378 16.868-4.42 33.645-12.646 49.789l-76.032-38.74c1.075-2.109 2.684-6.407 3.631-17.998 0.986-12.089 1.020-27.973 1.020-52.572h85.333zM702.037 827.35c8.030-4.091 14.554-10.618 18.645-18.646l76.032 38.74c-12.271 24.085-31.851 43.666-55.936 55.938l-38.741-76.032zM392.533 917.333c-23.191 0-43.151 0.033-59.521-1.304-16.868-1.378-33.645-4.421-49.789-12.647l38.74-76.032c2.109 1.075 6.407 2.682 17.998 3.629 12.089 0.988 27.973 1.021 52.572 1.021v85.333zM298.667 738.133c0 24.599 0.033 40.483 1.021 52.572 0.947 11.591 2.554 15.889 3.629 17.998l-76.032 38.74c-8.226-16.144-11.269-32.922-12.647-49.789-1.338-16.37-1.304-36.33-1.304-59.521h85.333zM283.223 903.382c-24.085-12.272-43.666-31.853-55.938-55.938l76.032-38.74c4.091 8.028 10.618 14.555 18.646 18.646l-38.74 76.032zM392.533 320h238.933v85.333h-238.933v-85.333zM725.333 226.133v-68.267h85.333v68.267h-85.333zM631.467 64h-238.933v-85.333h238.933v85.333zM298.667 157.867v68.267h-85.333v-68.267h85.333zM392.533 64c-24.599 0-40.483 0.034-52.572 1.020-11.591 0.947-15.889 2.556-17.998 3.631l-38.74-76.032c16.144-8.226 32.922-11.268 49.789-12.646 16.37-1.34 36.33-1.306 59.521-1.306v85.333zM213.333 157.867c0-23.194-0.033-43.153 1.304-59.52 1.378-16.87 4.421-33.647 12.647-49.792l76.032 38.741c-1.075 2.112-2.682 6.409-3.629 17.997-0.988 12.092-1.021 27.972-1.021 52.574h-85.333zM321.963 68.651c-8.028 4.092-14.555 10.615-18.646 18.645l-76.032-38.741c12.272-24.085 31.853-43.665 55.938-55.936l38.74 76.032zM725.333 157.867c0-24.602-0.034-40.482-1.020-52.574-0.947-11.588-2.556-15.885-3.631-17.997l76.032-38.741c8.226 16.145 11.268 32.922 12.646 49.792 1.34 16.367 1.306 36.326 1.306 59.52h-85.333zM631.467-21.333c23.194 0 43.153-0.034 59.52 1.306 16.87 1.378 33.647 4.42 49.792 12.646l-38.741 76.032c-2.112-1.075-6.409-2.684-17.997-3.631-12.092-0.986-27.972-1.020-52.574-1.020v-85.333zM720.683 87.296c-4.092-8.030-10.615-14.554-18.645-18.645l38.741-76.032c24.085 12.271 43.665 31.851 55.936 55.936l-76.032 38.741zM631.467 320c24.602 0 40.482-0.034 52.574-1.020 11.588-0.947 15.885-2.556 17.997-3.631l38.741 76.032c-16.145 8.226-32.922 11.268-49.792 12.646-16.367 1.34-36.326 1.306-59.52 1.306v-85.333zM810.667 226.133c0 23.194 0.034 43.153-1.306 59.52-1.378 16.87-4.42 33.647-12.646 49.792l-76.032-38.741c1.075-2.112 2.684-6.409 3.631-17.997 0.986-12.092 1.020-27.972 1.020-52.574h85.333zM702.037 315.349c8.030-4.092 14.554-10.615 18.645-18.645l76.032 38.741c-12.271 24.085-31.851 43.665-55.936 55.936l-38.741-76.032zM392.533 405.333c-23.191 0-43.151 0.034-59.521-1.306-16.868-1.378-33.645-4.42-49.789-12.646l38.74-76.032c2.109 1.075 6.407 2.684 17.998 3.631 12.089 0.986 27.973 1.020 52.572 1.020v85.333zM298.667 226.133c0 24.602 0.033 40.482 1.021 52.574 0.947 11.588 2.554 15.885 3.629 17.997l-76.032 38.741c-8.226-16.145-11.269-32.922-12.647-49.792-1.338-16.367-1.304-36.326-1.304-59.52h85.333zM283.223 391.381c-24.085-12.271-43.666-31.851-55.938-55.936l76.032-38.741c4.091 8.030 10.618 14.554 18.646 18.645l-38.74 76.032zM290.133 618.667h443.733v85.333h-443.733v-85.333zM896 456.533v-93.867h85.333v93.867h-85.333zM128 362.667v93.867h-85.333v-93.867h85.333zM42.667 362.667c0-36.932-0.366-63.77 5.815-86.839l82.426 22.089c-2.541 9.481-2.908 22.323-2.908 64.751h-85.333zM256 234.667c-42.426 0-55.269 0.367-64.753 2.906l-22.086-82.423c23.071-6.182 49.907-5.815 86.839-5.815v85.333zM48.482 275.827c15.781-58.893 61.784-104.896 120.679-120.678l22.086 82.423c-29.448 7.893-52.449 30.895-60.34 60.343l-82.426-22.089zM896 362.667c0-42.428-0.367-55.27-2.906-64.751l82.423-22.089c6.182 23.070 5.815 49.907 5.815 86.839h-85.333zM768 149.333c36.932 0 63.77-0.367 86.839 5.815l-22.089 82.423c-9.481-2.539-22.323-2.906-64.751-2.906v-85.333zM893.094 297.916c-7.893-29.449-30.895-52.45-60.343-60.343l22.089-82.423c58.893 15.782 104.896 61.786 120.678 120.678l-82.423 22.089zM733.867 618.667c36.548 0 61.393-0.033 80.597-1.602 18.705-1.528 28.271-4.299 34.944-7.699l38.741 76.033c-20.71 10.551-42.756 14.756-66.739 16.716-23.484 1.919-52.403 1.885-87.543 1.885v-85.333zM981.333 456.533c0 35.14 0.034 64.060-1.886 87.545-1.958 23.983-6.165 46.029-16.717 66.736l-76.032-38.74c3.401-6.673 6.17-16.239 7.697-34.945 1.57-19.203 1.604-44.047 1.604-80.596h85.333zM849.408 609.366c16.055-8.181 29.111-21.235 37.291-37.292l76.032 38.74c-16.363 32.113-42.47 58.222-74.581 74.584l-38.741-76.033zM290.133 704c-35.139 0-64.060 0.033-87.545-1.885-23.983-1.96-46.029-6.165-66.736-16.716l38.74-76.033c6.673 3.4 16.239 6.17 34.945 7.699 19.204 1.569 44.048 1.602 80.596 1.602v85.333zM128 456.533c0 36.548 0.033 61.393 1.602 80.596 1.528 18.706 4.299 28.272 7.699 34.945l-76.033 38.74c-10.551-20.707-14.756-42.754-16.716-66.736-1.919-23.485-1.885-52.404-1.885-87.545h85.333zM135.852 685.399c-32.113-16.363-58.222-42.471-74.584-74.584l76.033-38.74c8.181 16.057 21.235 29.111 37.292 37.292l-38.74 76.033zM640 469.333h128v85.333h-128v-85.333z" />
<glyph unicode="&#xe91d;" glyph-name="send" d="M453.423 369.997v0zM448.866 379.9v0zM433.984 389.436v0zM443.887 384.879v0zM629.167 81.617v0zM607.181 39.834v0zM565.555 81.655v0zM587.49 39.842v0zM866.146 846.367v0zM907.849 857.337v0zM910.353 802.16v0zM921.323 843.863v0zM145.603 565.179v0zM103.819 543.195v0zM145.641 501.568v0zM103.831 523.503v0zM417.81 414.161c-16.663-16.661-16.663-43.678 0-60.339 16.66-16.661 43.677-16.661 60.338 0l-60.338 60.339zM926.148 801.823c16.666 16.663 16.666 43.677 0 60.34-16.661 16.663-43.678 16.663-60.339 0l60.339-60.34zM161.114 525.431l720.545 281.188-31.023 79.494-720.544-281.188 31.022-79.495zM870.605 817.671l-281.186-720.545 79.497-31.023 281.186 720.546-79.497 31.022zM605.321 97.118l-112.132 288.341-79.531-30.929 112.132-288.341 79.531 30.929zM449.446 429.201l-288.341 112.134-30.929-79.532 288.341-112.132 30.929 79.531zM493.188 385.459c-1.22 3.14-4.22 11.691-9.587 19.217l-69.47-49.553c-0.338 0.474-0.647 0.939-0.926 1.387-0.277 0.448-0.508 0.849-0.692 1.186-0.359 0.657-0.536 1.062-0.516 1.015 0.007-0.017 0.048-0.111 0.131-0.307 0.083-0.201 0.192-0.469 0.338-0.832 0.146-0.367 0.314-0.794 0.516-1.31s0.421-1.079 0.675-1.732l79.531 30.929zM418.518 349.67c0.654-0.256 1.215-0.474 1.734-0.674 0.515-0.205 0.941-0.371 1.306-0.516s0.633-0.256 0.832-0.337c0.198-0.085 0.292-0.124 0.308-0.132 0.046-0.021-0.359 0.158-1.015 0.516-0.338 0.183-0.738 0.414-1.184 0.691-0.448 0.277-0.913 0.589-1.388 0.926l49.553 69.47c-7.526 5.367-16.077 8.367-19.217 9.587l-30.929-79.531zM483.601 404.676c-4.117 5.773-9.165 10.82-14.938 14.938l-49.553-69.47c-1.924 1.374-3.607 3.055-4.979 4.979l69.47 49.553zM589.419 97.126c-2.513-6.443-4.548-11.648-6.362-16.090-1.83-4.476-3.157-7.475-4.173-9.536-1.084-2.185-1.254-2.15-0.478-1.135 0.862 1.114 3.721 4.531 9.105 7.33l39.343-75.725c16.794 8.725 24.883 24.354 28.523 31.71 4.39 8.883 8.887 20.51 13.538 32.422l-79.497 31.023zM525.79 66.189c4.638-11.921 9.118-23.552 13.5-32.439 3.627-7.36 11.703-23.002 28.484-31.744l39.433 75.678c5.38-2.803 8.235-6.225 9.092-7.343 0.781-1.015 0.606-1.050-0.469 1.139-1.020 2.061-2.342 5.060-4.164 9.54-1.809 4.442-3.836 9.655-6.345 16.098l-79.531-30.929zM587.511 77.696c6.174 3.204 13.525 3.2 19.695-0.013l-39.433-75.678c18.509-9.643 40.559-9.655 59.081-0.034l-39.343 75.725zM881.66 806.62c5.824 2.274 10.483 4.090 14.498 5.582 4.049 1.504 6.737 2.411 8.589 2.949 1.963 0.569 1.835 0.38 0.431 0.257-1.579-0.138-5.658-0.272-10.846 1.461l27.038 80.937c-16.887 5.641-32.61 1.562-40.422-0.709-8.926-2.592-19.639-6.819-30.31-10.982l31.023-79.494zM950.101 786.649c4.164 10.67 8.388 21.386 10.982 30.31 2.27 7.816 6.349 23.537 0.708 40.423l-80.934-27.038c-1.737 5.189-1.6 9.269-1.463 10.848 0.124 1.402 0.311 1.529-0.256-0.43-0.538-1.852-1.446-4.54-2.948-8.589-1.493-4.016-3.311-8.674-5.585-14.502l79.497-31.022zM894.332 816.869c-6.362 2.125-11.354 7.115-13.474 13.475l80.934 27.038c-6.374 19.078-21.346 34.050-40.422 40.424l-27.038-80.937zM130.092 604.926c-11.915-4.649-23.541-9.144-32.426-13.537-7.354-3.636-22.985-11.729-31.709-28.524l75.724-39.341c-2.797-5.385-6.214-8.243-7.331-9.101-1.014-0.781-1.048-0.61 1.138 0.474 2.060 1.015 5.058 2.342 9.535 4.173 4.44 1.813 9.649 3.849 16.091 6.362l-31.022 79.495zM161.105 541.335c-6.445 2.506-11.656 4.534-16.098 6.343-4.479 1.824-7.479 3.147-9.54 4.163-2.188 1.079-2.154 1.252-1.139 0.473 1.117-0.857 4.538-3.714 7.341-9.095l-75.678-39.427c8.745-16.785 24.384-24.862 31.743-28.489 8.89-4.382 20.522-8.862 32.442-13.5l30.929 79.532zM65.957 562.865c-9.621-18.52-9.608-40.57 0.035-59.075l75.678 39.427c3.215-6.17 3.219-13.52 0.012-19.694l-75.724 39.341zM478.148 353.822l448 448.001-60.339 60.34-447.999-448.001 60.338-60.339z" />
<glyph unicode="&#xe91e;" glyph-name="close" d="M798.17 673.83c16.661 16.663 16.661 43.677 0 60.34s-43.678 16.662-60.339 0l60.339-60.34zM225.83 222.17c-16.662-16.661-16.662-43.678 0-60.339s43.677-16.661 60.34 0l-60.34 60.339zM286.17 734.17c-16.663 16.662-43.677 16.662-60.34 0s-16.662-43.677 0-60.34l60.34 60.34zM737.83 161.83c16.661-16.661 43.678-16.661 60.339 0s16.661 43.678 0 60.339l-60.339-60.339zM737.83 734.17l-512-512 60.34-60.339 512 512-60.339 60.34zM225.83 673.83l512-512 60.339 60.339-512 512-60.34-60.34z" />
<glyph unicode="&#xe91f;" glyph-name="mouse" d="M469.333 576c0-23.564 19.102-42.667 42.667-42.667s42.667 19.103 42.667 42.667h-85.333zM554.667 704c0 23.564-19.102 42.667-42.667 42.667s-42.667-19.103-42.667-42.667h85.333zM768 576v-256h85.333v256h-85.333zM256 320v256h-85.333v-256h85.333zM512 64c-141.385 0-256 114.615-256 256h-85.333c0-188.514 152.82-341.333 341.333-341.333v85.333zM768 320c0-141.385-114.615-256-256-256v-85.333c188.514 0 341.333 152.819 341.333 341.333h-85.333zM512 832c141.385 0 256-114.615 256-256h85.333c0 188.513-152.819 341.333-341.333 341.333v-85.333zM512 917.333c-188.513 0-341.333-152.82-341.333-341.333h85.333c0 141.385 114.615 256 256 256v85.333zM554.667 576v128h-85.333v-128h85.333z" />
<glyph unicode="&#xe920;" glyph-name="alert-circle" d="M554.667 618.667c0 23.564-19.102 42.667-42.667 42.667s-42.667-19.103-42.667-42.667h85.333zM469.333 448c0-23.565 19.102-42.667 42.667-42.667s42.667 19.102 42.667 42.667h-85.333zM512 320c-23.565 0-42.667-19.102-42.667-42.667s19.102-42.667 42.667-42.667v85.333zM512.427 234.667c23.565 0 42.667 19.102 42.667 42.667s-19.102 42.667-42.667 42.667v-85.333zM896 448c0-212.079-171.921-384-384-384v-85.333c259.204 0 469.333 210.129 469.333 469.333h-85.333zM512 64c-212.077 0-384 171.921-384 384h-85.333c0-259.204 210.128-469.333 469.333-469.333v85.333zM128 448c0 212.077 171.923 384 384 384v85.333c-259.206 0-469.333-210.128-469.333-469.333h85.333zM512 832c212.079 0 384-171.923 384-384h85.333c0 259.206-210.129 469.333-469.333 469.333v-85.333zM469.333 618.667v-170.667h85.333v170.667h-85.333zM512 234.667h0.427v85.333h-0.427v-85.333z" />
<glyph unicode="&#xe921;" glyph-name="check-circle" d="M350.17 478.17c-16.663 16.661-43.677 16.661-60.34 0s-16.662-43.678 0-60.339l60.34 60.339zM448 320l-30.17-30.17c16.662-16.661 43.678-16.661 60.34 0l-30.17 30.17zM734.17 545.83c16.661 16.663 16.661 43.677 0 60.34s-43.678 16.662-60.339 0l60.339-60.34zM896 448c0-212.079-171.921-384-384-384v-85.333c259.204 0 469.333 210.129 469.333 469.333h-85.333zM512 64c-212.077 0-384 171.921-384 384h-85.333c0-259.204 210.128-469.333 469.333-469.333v85.333zM128 448c0 212.077 171.923 384 384 384v85.333c-259.206 0-469.333-210.128-469.333-469.333h85.333zM512 832c212.079 0 384-171.923 384-384h85.333c0 259.206-210.129 469.333-469.333 469.333v-85.333zM289.83 417.83l128-128 60.34 60.339-128 128-60.34-60.339zM478.17 289.83l256 256-60.339 60.34-256-256 60.34-60.339z" />
<glyph unicode="&#xe922;" glyph-name="x-circle" d="M670.17 545.83c16.661 16.663 16.661 43.677 0 60.34s-43.678 16.662-60.339 0l60.339-60.34zM353.83 350.17c-16.662-16.661-16.662-43.678 0-60.339s43.677-16.661 60.34 0l-60.34 60.339zM414.17 606.17c-16.663 16.662-43.677 16.662-60.34 0s-16.662-43.677 0-60.34l60.34 60.34zM609.83 289.83c16.661-16.661 43.678-16.661 60.339 0s16.661 43.678 0 60.339l-60.339-60.339zM896 448c0-212.079-171.921-384-384-384v-85.333c259.204 0 469.333 210.129 469.333 469.333h-85.333zM512 64c-212.077 0-384 171.921-384 384h-85.333c0-259.204 210.128-469.333 469.333-469.333v85.333zM128 448c0 212.077 171.923 384 384 384v85.333c-259.206 0-469.333-210.128-469.333-469.333h85.333zM512 832c212.079 0 384-171.923 384-384h85.333c0 259.206-210.129 469.333-469.333 469.333v-85.333zM609.83 606.17l-256-256 60.34-60.339 256 256-60.339 60.34zM353.83 545.83l256-256 60.339 60.339-256 256-60.34-60.34z" />
<glyph unicode="&#xe923;" glyph-name="check" d="M883.503 673.83c16.661 16.663 16.661 43.677 0 60.34s-43.678 16.662-60.339 0l60.339-60.34zM384 234.667l-30.17-30.17c16.663-16.661 43.677-16.661 60.34 0l-30.17 30.17zM200.837 478.17c-16.663 16.661-43.677 16.661-60.34 0s-16.662-43.678 0-60.339l60.34 60.339zM823.164 734.17l-469.334-469.334 60.34-60.339 469.333 469.333-60.339 60.34zM414.17 264.836l-213.333 213.333-60.34-60.339 213.333-213.333 60.34 60.339z" />
<glyph unicode="&#xe924;" glyph-name="chevron-right" d="M353.83 222.17c-16.662-16.661-16.662-43.678 0-60.339s43.677-16.661 60.34 0l-60.34 60.339zM640 448l30.17-30.17c16.661 16.661 16.661 43.678 0 60.339l-30.17-30.17zM414.17 734.17c-16.663 16.662-43.677 16.662-60.34 0s-16.662-43.677 0-60.34l60.34 60.34zM414.17 161.83l256 256-60.339 60.339-256-256 60.34-60.339zM670.17 478.17l-256 256-60.34-60.34 256-256 60.339 60.339z" />
<glyph unicode="&#xe925;" d="M85.333 917.333c-23.564 0-42.667-19.103-42.667-42.667s19.103-42.667 42.667-42.667v85.333zM874.475 366.985v0zM930.948 663.48v0zM174.853 845.361v0zM239.928 374.127v0zM933.001 689.771v0zM923.627 701.098v0zM817.109 263.236v0zM853.005 292.941v0zM294.884 263.791v0zM258.479 295.582v0zM161.032 872.736v0zM170.118 864.855v0zM85.333 832h55.729v85.333h-55.729v-85.333zM375.215 213.333h365.137v85.333h-365.137v-85.333zM916.386 359.002l56.474 296.495-83.823 15.967-56.478-296.492 83.827-15.97zM132.615 839.327l20.195-141.361 84.476 12.068-20.195 141.361-84.476-12.068zM152.771 698.248l44.881-329.873 84.554 11.503-44.881 329.873-84.554-11.504zM897.417 746.667h-702.369v-85.333h702.369v85.333zM972.86 655.497c1.182 6.199 2.624 13.553 3.277 19.992 0.691 6.815 1.092 17.175-2.901 28.491l-80.465-28.417c-1.028 2.917-1.382 5.413-1.485 7.043-0.094 1.462 0.017 2.143-0.047 1.51-0.064-0.635-0.226-1.859-0.623-4.138-0.393-2.272-0.9-4.935-1.579-8.513l83.823-15.967zM897.417 661.333c3.644 0 6.353-0.001 8.661-0.040 2.313-0.038 3.546-0.106 4.181-0.162 0.631-0.055-0.055-0.041-1.476 0.325-1.579 0.407-3.968 1.221-6.639 2.778l42.97 73.725c-10.368 6.042-20.621 7.587-27.443 8.182-6.447 0.562-13.943 0.524-20.254 0.524v-85.333zM973.235 703.978c-5.052 14.302-15.019 26.345-28.122 33.982l-42.97-73.725c-4.369 2.545-7.689 6.56-9.374 11.328l80.465 28.415zM740.352 213.333c19.473 0 36.412-0.026 50.475 1.024 14.601 1.088 29.086 3.494 43.473 9.83l-34.385 78.097c-2.044-0.9-5.828-2.112-15.445-2.833-10.15-0.759-23.377-0.785-44.117-0.785v-85.333zM832.559 374.972c-3.878-20.378-6.383-33.361-9.024-43.196-2.505-9.31-4.407-12.8-5.675-14.639l70.285-48.393c8.917 12.949 13.99 26.726 17.792 40.866 3.665 13.619 6.805 30.259 10.449 49.391l-83.827 15.97zM834.3 224.188c21.734 9.57 40.38 24.994 53.845 44.557l-70.285 48.393c-4.489-6.519-10.701-11.661-17.946-14.852l34.385-78.097zM375.215 298.667c-21.777 0-35.71 0.030-46.381 0.849-10.138 0.777-14.068 2.095-16.137 3.046l-35.625-77.542c14.891-6.839 30.003-9.417 45.228-10.586 14.693-1.131 32.445-1.101 52.915-1.101v85.333zM197.651 368.375c2.76-20.284 5.124-37.879 8.223-52.284 3.211-14.929 7.803-29.555 16.59-43.388l72.031 45.751c-1.221 1.924-3.057 5.641-5.195 15.582-2.251 10.462-4.158 24.265-7.094 45.841l-84.554-11.503zM312.697 302.562c-7.473 3.435-13.794 8.951-18.203 15.893l-72.031-45.751c13.228-20.826 32.191-37.385 54.608-47.684l35.625 77.542zM141.063 832c2.716 0 4.669-0.001 6.322-0.026 1.651-0.024 2.438-0.067 2.759-0.091 0.298-0.023-0.369 0.009-1.592 0.274-1.339 0.291-3.18 0.825-5.255 1.773l35.47 77.612c-8.492 3.881-16.421 4.989-22.11 5.425-5.157 0.395-10.996 0.366-15.593 0.366v-85.333zM217.091 851.395c-0.65 4.551-1.447 10.336-2.567 15.385-1.236 5.57-3.454 13.263-8.497 21.121l-71.816-46.090c-1.232 1.92-2.021 3.667-2.499 4.951-0.436 1.172-0.561 1.829-0.496 1.537 0.070-0.314 0.223-1.087 0.48-2.718 0.258-1.633 0.535-3.566 0.919-6.255l84.476 12.068zM143.297 833.93c-3.722 1.701-6.876 4.437-9.087 7.881l71.816 46.089c-6.631 10.332-16.093 18.54-27.26 23.642l-35.47-77.612zM384 64v-85.333c47.13 0 85.333 38.204 85.333 85.333h-85.333zM384 64h-85.333c0-47.13 38.205-85.333 85.333-85.333v85.333zM384 64v85.333c-47.128 0-85.333-38.204-85.333-85.333h85.333zM384 64h85.333c0 47.13-38.204 85.333-85.333 85.333v-85.333zM725.333 64v-85.333c47.13 0 85.333 38.204 85.333 85.333h-85.333zM725.333 64h-85.333c0-47.13 38.204-85.333 85.333-85.333v85.333zM725.333 64v85.333c-47.13 0-85.333-38.204-85.333-85.333h85.333zM725.333 64h85.333c0 47.13-38.204 85.333-85.333 85.333v-85.333z" />
<glyph unicode="&#xe926;" d="M533.333 384c0-17.673 14.327-32 32-32s32 14.327 32 32h-64zM597.333 576c0 17.673-14.327 32-32 32s-32-14.327-32-32h64zM469.333 512c-17.673 0-32-14.327-32-32s14.327-32 32-32v64zM661.333 448c17.673 0 32 14.327 32 32s-14.327 32-32 32v-64zM597.333 384v192h-64v-192h64zM469.333 448h192v64h-192v-64z" />
</font>
</defs>
</svg>
